#TITLE:Excel Saga;
#SUBTITLE:- Excel's Theme;
#ARTIST:Victor Entertainment;
#TITLETRANSLIT:;
#SUBTITLETRANSLIT:;
#ARTISTTRANSLIT:;
#CREDIT:Anime Toshokan;
#BANNER:Excel Saga - Excel's Theme.png;
#BACKGROUND:Excel Saga - Excel's Theme bg.png;
#LYRICSPATH:;
#CDTITLE:cdtitle.png;
#MUSIC:Excel Saga - Excel's Theme.mp3;
#OFFSET:-1.065;
#SAMPLESTART:7.890;
#SAMPLELENGTH:13.600;
#SELECTABLE:YES;
#BPMS:0.000=140.000,185.000=135.000,188.000=140.000;
#STOPS:;
#BGCHANGES:;
// cache tags:
#FIRSTBEAT:0.000;
#LASTBEAT:260.000;
#SONGFILENAME:Songs/Music V.I.P ^_^/(Zaghurim) Excel Saga - Excel's Theme/Excel Saga - Excel's Theme.sm;
#HASMUSIC:1;
#HASBANNER:1;
#MUSICLENGTH:117.211;
// end cache tags

//---------------dance-single - ----------------
#NOTES:
     dance-single:
     :
     Hard:
     12:
     1.000,1.000,1.000,0.009,1.000,811.000,343.000,1.000,0.000,0.000:
0001
0000
0001
0100
0000
0100
0010
0000
0001
0000
0000
0000
1001
0000
0000
0000
,
0001
0000
0001
0100
0000
0100
0010
0000
0001
0000
0000
0000
1001
0000
0000
0000
,
0001
0000
0001
0100
1001
0100
0010
0000
0001
0000
0001
0100
1001
0100
0010
0000
,
0001
0000
1001
0100
0000
0100
1001
0000
0010
0000
1001
0010
0101
0000
0001
0000
,
1001
0100
0010
1100
0010
0000
0011
1000
0011
0100
0001
1010
0101
0000
0101
0010
,
1001
0100
0010
0101
0010
1001
0010
0100
0011
0100
0010
1001
0110
0000
0101
0010
,
1100
0010
0001
0110
1000
0000
0011
0100
0011
0100
1000
0101
1010
0100
0010
0100
,
1001
0010
0100
1010
0001
1010
0101
0010
1001
0000
0010
1100
0011
0100
0011
0100
,
1001
0100
0010
1100
0010
0000
0011
1000
0011
0000
0010
1100
0011
0100
1001
0100
,
0011
0100
0010
1100
0010
1100
0011
0100
1001
0000
0010
1001
0110
1000
0011
0100
,
1010
0000
0010
0101
0010
0100
0011
1000
0011
0000
0100
1010
0101
0000
0011
0100
,
0001
0000
1001
0100
0000
0100
1001
0000
0010
0000
1001
0000
1001
0000
0000
0000
,
1001
0010
0100
0011
0100
0000
1100
0001
1100
0010
1000
0101
1010
0000
1010
0100
,
1001
0010
0100
1010
0100
1001
0100
0010
1100
0010
0100
1001
0110
0000
1010
0100
,
0011
0100
1000
0110
0001
0000
1100
0010
1100
0010
0001
1010
0101
0010
0100
0010
,
1001
0100
0010
0101
1000
0101
1010
0100
1001
0000
0100
0011
1100
0010
1100
0010
,
1001
0010
0100
0011
0100
0000
1100
0001
1100
0000
0100
0011
1100
0010
1001
0010
,
1100
0010
0100
0011
0100
0011
1100
0010
1001
0000
0100
1001
0110
0001
1100
0010
,
0101
0000
0100
1010
0100
0010
1100
0001
1100
0000
0010
0101
1010
0000
1100
0010
,
1000
0000
0010
1100
0000
1010
0000
0110
1001
0000
0001
0000
0110
0000
0100
0010
,
1001
0000
0100
0010
1000
0000
0010
1100
0011
0000
0100
0001
0100
0000
0011
0100
,
1010
0000
0100
0010
1001
0000
0010
1000
0001
0000
0000
0001
0100
0000
0010
0000
,
0011
0000
1100
0010
0100
0000
0100
1010
0101
0000
0100
0001
0100
0000
0110
0001
,
1010
0000
1000
0010
0100
0000
0010
1000
0001
0000
0000
0001
0100
0000
0010
0000
,
1010
0000
0000
0011
1000
0000
0101
0000
0010
0000
0001
0010
1100
0000
1010
0000
,
0101
0000
0010
0001
0110
0000
1001
0000
0000
0000
0101
0000
1010
0000
0011
0000
,
0210
0000
0000
0000
0000
0000
0310
0100
0010
0100
0010
0100
0010
0100
0010
0100
0010
0100
0010
0100
0010
0100
0010
0100
,
0001
0011
0101
1001
0000
0011
0110
1100
0000
1001
0110
1001
,
0000
0001
0000
0001
0010
0100
0000
0100
1000
0000
1000
0100
0011
0000
0001
0000
,
1100
0010
0100
0011
0100
0000
0101
0010
1100
0010
0100
1001
0110
0000
1001
0100
,
0011
0100
0010
1001
0100
1010
0100
0010
1001
0010
0100
1001
0110
0000
0011
0100
,
1001
0100
0010
1100
0010
0000
1001
0010
1100
0010
0100
1001
0110
0001
0010
0100
,
1001
0100
0010
1100
0010
1100
0011
0100
1001
0000
0010
1001
0110
0001
0110
1000
,
0110
0001
0100
1001
0100
0000
1010
0100
0011
0000
0100
0011
1100
0010
1001
0010
,
1100
0010
0100
0011
0100
0011
1100
0010
1001
0000
0100
1001
0110
0001
1100
0010
,
0101
0000
0100
1010
0100
0010
1100
0001
1100
0000
0010
0101
1010
0000
1100
0010
,
1100
0000
0100
1010
0000
0110
0000
0110
1001
0000
0000
0000
0000
0000
0000
0000
,
1010
0001
0001
0001
0001
0000
0100
0000
0001
0000
0001
0000
0100
0000
0000
0001
,
0000
0001
0001
0001
0001
0000
0100
0000
0001
0000
0001
0000
0100
0000
0000
0001
,
0000
0001
0001
0001
0001
0000
0100
0000
0001
0000
0001
0000
0100
0000
0000
0001
,
0000
0001
0001
0001
0001
0000
0100
0000
0001
0000
0100
0000
0001
0000
0100
0000
,
0000
0001
0001
0001
0001
0000
0100
0000
0001
0000
0001
0000
0100
0000
0000
0001
,
0000
0001
0001
0001
0001
0000
0100
0000
0001
0000
0001
0000
0100
0000
0000
0001
,
0000
0000
0000
1001
0000
0000
0001
0000
0000
1001
0000
0000
1001
0000
0000
0000
0100
0000
0010
0000
0100
0000
0000
0000
0101
0000
0000
1000
0000
0000
0010
0000
0000
1000
0000
0000
1001
0000
0000
0000
0100
0000
0010
0000
0100
0000
0000
0000
,
1010
0000
0010
1100
0000
1010
0000
0110
1001
0000
0000
0000
0010
0000
0000
0000
,
1010
0000
0010
1100
0000
1010
0000
0110
1001
0000
0000
0000
0100
0000
0000
0000
,
1001
0000
0000
0000
0000
0000
0000
0000
0001
0010
0100
1000
0001
0010
0100
1000
0001
0010
0100
1000
0001
0010
0100
1000
0001
0010
0100
1000
0001
0010
0100
1000
,
0011
0100
0010
1100
0010
0000
0011
1000
0011
0100
0001
1010
0101
0000
0101
0010
,
1001
0100
0010
0101
0010
1001
0010
0100
0011
0100
0010
1001
0110
0000
0101
0010
,
1100
0010
0001
0110
1000
0000
0011
0100
0011
0100
1000
0101
1010
0100
0010
0100
,
1001
0010
0100
1010
0001
1010
0101
0010
1001
0000
0010
1100
0011
0100
0011
0100
,
1001
0100
0010
1100
0010
0000
0011
1000
0011
0000
0010
1100
0011
0100
1001
0100
,
0011
0100
0010
1100
0010
1100
0011
0100
1001
0000
0010
1001
0110
1000
0011
0100
,
1010
0000
0010
0101
0010
0100
0011
1000
0011
0000
0100
1010
0101
0000
0011
0100
,
0001
0000
1001
0100
0000
0100
1001
0000
0010
0000
1001
0000
1001
0000
0000
0000
,
1001
0010
0100
0011
0100
0000
1100
0001
1100
0010
1000
0101
1010
0000
1010
0100
,
1001
0010
0100
1010
0100
1001
0100
0010
1100
0010
0100
1001
0110
0000
1010
0100
,
0011
0100
1000
0110
0001
0000
1100
0010
1100
0010
0001
1010
0101
0010
0100
0010
,
1001
0100
0010
0101
1000
0101
1010
0100
1001
0000
0100
0011
1100
0010
1100
0010
,
1001
0010
0100
0011
0100
0000
1100
0001
1100
0000
0100
0011
1100
0010
1001
0010
,
1100
0010
0100
0011
0100
0011
1100
0010
1001
0000
0100
1001
0110
0001
1100
0010
,
0101
0000
0100
1010
0100
0010
1100
0001
1100
0000
0010
0101
1010
0000
0011
0100
,
1001
0000
1001
1001
0000
1001
0000
1001
1001
0000
0000
0000
1000
0000
0000
0000
,
0011
1000
0010
0101
0000
1000
0011
0100
0000
1010
0100
0001
,
1100
0000
0000
0010
0000
0000
0000
0000
0000
0010
0000
0000
0101
0000
0000
0010
0000
0000
0000
0000
0000
0010
0000
0000
1001
0000
0000
0000
0000
0000
0100
0000
0000
0000
0000
0000
0001
0000
0000
0000
0011
0000
0000
0000
0101
0000
0000
0000
,
1001
0000
0000
0000
;

//---------------dance-single - ----------------
#NOTES:
     dance-single:
     :
     Easy:
     14:
     1.000,1.000,1.000,0.000,1.000,910.000,486.000,0.000,0.000,154.000:
0001
0000
0001
0100
0000
0100
0010
0000
0001
0000
0000
0000
1001
0000
0000
0000
,
0001
0000
0001
0100
0000
0100
0010
0000
0001
0000
0000
0000
1001
0000
0000
0000
,
0001
0000
0001
0100
1001
0100
0010
0000
0001
0000
0001
0100
1001
0100
0010
0000
,
0001
0000
1001
0100
0000
0100
1001
0000
0010
0000
1001
0010
0101
0000
0001
0000
,
1011
0100
0010
1100
0011
0000
1011
0100
1011
0100
0010
1001
0111
0000
1010
0100
,
1011
0100
0010
0101
1010
0101
0010
0100
1011
0100
0010
1001
0111
0000
0101
0010
,
1101
0010
0001
0110
1001
0000
1011
0100
1011
0100
1000
0011
1101
0010
0001
0010
,
1101
0010
0100
1010
0101
1010
0101
0010
1101
0000
0010
1100
1011
0100
0011
0100
,
1011
0100
0010
1100
0011
0000
0111
1000
0111
0000
0010
1100
1011
0100
1001
0100
,
1011
0100
0010
1100
0011
1100
0011
0100
1011
0000
0010
1001
0111
1000
0011
0100
,
1011
0000
0010
0101
1010
0100
1011
0100
1011
0000
0100
1010
1101
0000
0011
0100
,
0010
0000
1001
0100
0000
0100
1001
0000
0010
0000
1001
0000
1001
0000
0000
0000
,
1001
0010
0100
0011
1100
0000
1101
0010
1101
0010
1000
0101
1011
0000
1010
0100
,
1011
0100
0010
1100
0011
1100
0001
0010
1101
0010
0100
1001
0111
0000
1010
0100
,
1011
0100
1000
0110
1001
0000
1101
0010
1101
0010
0001
1010
1101
0010
0100
0010
,
1101
0010
0100
0011
0101
1001
0110
0001
1110
0000
0100
0011
1101
0010
1100
0010
,
1101
0010
0100
0011
1100
0000
1110
0001
1110
0000
0100
0011
1101
0010
1001
0010
,
1101
0010
0100
0011
1100
0011
1100
0010
1101
0000
0100
1001
0111
1000
0101
0010
,
1101
0000
0100
1010
0101
0010
1101
0010
1101
0000
0010
0101
1011
0000
1100
0010
,
0101
0000
0010
1100
0000
1010
0000
0110
1001
0000
0001
0000
0110
0000
0100
0010
,
1101
0000
0100
0011
1100
0000
1100
1100
1011
0000
1100
0011
1101
0000
0101
0101
,
1110
0000
1010
0101
1011
0000
1010
0101
1011
0000
1000
0011
1101
0000
0010
0101
,
1011
0000
0101
1010
1101
0000
0110
0110
1011
0000
0011
1100
1011
0000
1001
0110
,
1011
0000
0000
0000
0000
0000
0010
0000
0000
1101
0000
0000
1011
0000
0000
0000
0000
0000
1001
0000
0000
0110
0000
0000
1011
0000
0000
0000
0000
0000
0001
0000
0000
1100
0000
0000
1011
0000
0000
0000
0000
0000
0010
0000
0000
0101
0000
0010
,
1101
0000
0101
1010
1011
0000
1011
0110
1101
0000
1010
0101
1011
0000
0111
0000
,
1011
0000
1001
0101
1011
0000
1011
1100
0011
0000
1011
0000
1101
0000
1011
0000
,
1010
0000
0100
0000
0010
0000
1100
0000
0010
0001
0100
0000
0010
0000
0100
0000
0010
0000
1100
0000
0010
0001
0100
0000
0010
0000
0100
0000
0010
0000
1100
0000
0010
0001
0100
0000
0010
0000
0100
0000
0010
0000
1100
0000
0010
0001
0100
0000
,
0001
0011
0101
1001
0000
0011
0110
1100
0000
1001
0110
1001
,
0000
0001
0000
0001
0010
0100
0000
0100
1000
0000
1001
0100
0011
0000
0010
0000
,
1011
0100
0010
1100
0011
0000
1011
0100
1011
0100
0010
1001
0111
0000
1010
0100
,
1011
0100
0010
0101
1010
0101
0010
0100
1011
0100
0010
1001
0111
0000
0101
0010
,
1101
0010
0001
0110
1001
0000
1011
0100
1011
0100
1000
0011
1101
0010
0001
0010
,
1101
0010
0100
1010
0101
1010
0101
0010
1101
0000
0010
1100
1011
0100
0011
0100
,
1011
0100
0010
1100
0011
0000
0111
1000
0111
0000
0010
1100
1011
0100
1001
0100
,
1011
0100
0010
1100
0011
1100
0011
0100
1011
0000
0010
1001
0111
1000
0011
0100
,
1011
0000
0010
0101
1010
0100
1011
0100
1011
0000
0100
1010
1101
0000
0011
0010
,
1100
0000
0100
1010
0000
0110
0000
0110
1001
0000
0000
0000
0000
0000
0000
0000
,
1010
0100
0011
0100
1001
0000
0011
0000
0101
0000
1000
0000
0110
0000
1000
0000
0011
0100
0010
0100
1001
0000
0010
0000
0110
0000
1000
0000
0010
0000
0101
0000
,
0010
0100
1001
0100
0011
0000
0101
0000
1001
0000
0010
0000
1100
0000
0010
0000
1001
0100
0010
0001
1100
0000
0010
0000
0101
0010
0100
1000
0010
0000
0101
0000
,
0010
0100
1001
0100
0011
0000
0101
0000
0011
0000
1000
0000
0110
0000
1000
0000
0101
0010
0100
0010
0101
0000
1000
0000
0110
0000
1000
0000
0010
0000
0101
0000
,
0010
0100
0011
0100
0011
0000
0101
0000
1001
0000
0010
0000
1100
0000
0010
0000
0101
0010
0100
0010
1100
0000
0100
0000
0011
0100
0010
0100
1010
0000
0101
0000
,
0010
0100
1001
0100
0011
0000
0101
0000
1001
0000
0010
0000
1100
0000
0010
0000
1001
0010
0100
0010
1001
0000
0010
0000
1100
0000
0010
0000
0100
0000
0011
0000
,
1000
0100
0011
0100
1001
0000
0011
0000
0101
0000
0010
0000
1100
0000
0010
0000
0101
0010
1000
0010
0101
0000
0010
0000
1100
0001
0010
0100
1000
0000
0011
0000
,
0100
0000
0000
0000
0000
0000
0010
0000
0000
0000
0000
0000
1001
0000
0000
0000
0000
0000
0010
0000
0000
0000
0000
0000
0101
0000
0000
0000
0000
0000
0010
0000
0000
0000
0000
0000
1101
0000
0000
0000
0000
0000
0000
0000
0000
0000
0000
0000
1011
0000
0000
0000
0000
0000
0000
0000
0000
0000
0000
0000
0010
0000
0000
0000
0100
0000
0000
0000
0000
0000
0000
0000
0011
0000
0000
0000
0000
0000
0000
0000
0100
0000
0000
0000
0010
0000
0000
0000
0000
0000
0000
0000
0000
0000
0000
0000
0101
0000
0000
0000
0000
0000
0010
0000
0000
0000
0000
0000
1100
0000
0000
0000
0000
0000
0010
0000
0000
0000
0000
0000
0101
0000
0000
0000
0000
0000
0010
0000
0000
0000
0000
0000
1100
0000
0000
0000
0000
0000
0010
0000
0000
0000
0000
0000
1001
0000
0000
0000
0000
0000
0000
0000
0000
0000
0000
0000
0000
0000
0000
0000
0101
0000
0000
0000
0000
0000
0000
0000
0010
0000
0000
0000
0000
0000
0000
0000
0101
0000
0000
0000
0000
0000
0000
0000
0000
0000
0000
0000
0000
0000
0000
0000
,
1010
0000
0010
1100
0000
1010
0000
0110
1001
0000
0000
0000
0010
0000
0000
0000
,
1010
0000
0010
1100
0000
1010
0000
0110
1001
0000
0000
0000
0100
0000
0000
0000
,
1001
0000
0000
0000
0000
0000
0000
0000
0001
0010
0100
1000
0001
0010
0100
1000
0001
0010
0100
1000
0001
0010
0100
1000
0001
0010
0100
1000
0001
0010
0100
1000
,
0111
1000
0100
0011
1100
0000
1101
0010
1101
0010
0100
1001
1110
0000
0101
0010
,
1101
0010
0100
1010
0101
1010
0100
0010
1101
0010
0100
1001
1110
0000
1010
0100
,
1011
0100
1000
0110
1001
0000
1101
0010
1101
0010
0001
1100
1011
0100
1000
0100
,
1011
0100
0010
0101
1010
0101
1010
0100
1011
0000
0100
0011
1101
0010
1100
0010
,
1101
0010
0100
0011
1100
0000
1110
0001
1110
0000
0100
0011
1101
0010
1001
0010
,
1101
0010
0100
0011
1100
0011
1100
0010
1101
0000
0100
1001
1110
0001
1100
0010
,
1101
0000
0100
1010
0101
0010
1101
0010
1101
0000
0010
0101
1011
0000
1100
0010
,
0001
0000
1001
0100
0000
0100
1001
0000
0010
0000
1001
0000
1001
0000
0000
0000
,
1011
0100
0010
1100
0011
0000
1011
0100
1011
0100
0010
1001
0111
0000
1010
0100
,
1011
0100
0010
0101
1010
0101
0010
0100
1011
0100
0010
1001
0111
0000
0101
0010
,
1101
0010
0001
0110
1001
0000
1011
0100
1011
0100
1000
0011
1101
0010
0001
0010
,
1101
0010
0100
1010
0101
1010
0101
0010
1101
0000
0010
1100
1011
0100
0011
0100
,
1011
0100
0010
1100
0011
0000
0111
1000
0111
0000
0010
1100
1011
0100
1001
0100
,
1011
0100
0010
1100
0011
1100
0011
0100
1011
0000
0010
1001
0111
1000
0011
0100
,
1011
0000
0010
0101
1010
0100
1011
0100
1011
0000
0100
1010
1101
0000
0011
0100
,
1001
0000
1001
1001
0000
1001
0000
1001
1001
0000
0000
0000
1000
0000
0000
0000
,
0011
1000
0010
0101
0000
1000
0011
0100
0000
1010
0100
0001
,
1100
0000
0000
0010
0000
0000
0000
0000
0000
0010
0000
0000
0101
0000
0000
0010
0000
0000
0000
0000
0000
0010
0000
0000
1100
0000
0000
0000
0000
0000
0100
0000
0000
0000
0000
0000
0001
0000
0000
0000
0011
0000
0000
0000
0101
0000
0000
0000
,
1001
0000
0000
0000
;
